Девяностые Чума Скачать Торрент

Общее Полное имя : C:\Users\Astarot999\Downloads\Chuma Сборная Союза Клипы Скачать. devyanostye\Chuma. devyanostye. 1 seriya Презентации Скачать Волщебница Вода. WEBRip. avi Формат : AVI Формат/Информация : Audio Video Interleave Размер файла : 600 Мбайт Продолжительность : 45 м. Общий поток : 1830 Кбит/сек Программа кодирования : VirtualDubMod 1 5 Скачать Wpi 2015 Через Торрент Бесплатно. 10. 2 (build 2540/release) Библиотека кодирования : VirtualDubMod build 2540/release Видео Идентификатор : 0 Формат : MPEG-4 Visual Профиль формата : Advanced Simple@L5 Параметр BVOP формата : 1 Параметр QPel формата : Нет Параметр GMC формата : Без точки перехода Параметр матрицы формата : Default (MPEG) Идентификатор кодека : XVID Идентификатор кодека/Подсказка : XviD Продолжительность : 45 м. Битрейт : 1692 Кбит/сек Ширина : 720 пикселей Высота : 400 пикселей Соотношение сторон : 16:9 Частота кадров : 25,000 кадров/сек Цветовое пространство : YUV Субдискретизация насыщенности : 4:2:0 Битовая глубина : 8 бит Тип развёртки : Прогрессивная Метод сжатия : С потерями Бит/(Пиксели*Кадры) : 0 235 Размер потока : 555 Мбайт (92%) Библиотека кодирования : XviD 1 Скачать Бесплатно Игры На Смартфон Андроид 4.2.2. 2. 0. dev47 (UTC 2006-11-01) Аудио Идентификатор : 1 Формат : MPEG Audio Версия формата : Version 1 Профиль формата : Layer 3 Идентификатор кодека : 55 Идентификатор кодека/Подсказка : MP3 Продолжительность : 45 м Вид битрейта : Постоянный Битрейт : 128 Кбит/сек Каналы : 2 канала Частота : 44,1 КГц Метод сжатия : С потерями Размер потока : 42,0 Мбайт (7%) Выравнивание : Разделение по промежуткам Продолжительность промежутка : 40 мс . (1,00 видеокадр) Время предзагрузки промежутка : 500 мс. Библиотека кодирования : LAME3. 97 Настройки программы : -m s -V 4 -q 2 -lowpass 17 -b 128

Нашлось

74056 статей по запросу «девяностые чума скачать торрент»

девяностые чума скачать торрент
11.05.2016 03:59:05

Чума / Девяностые (2015) скачать торрент бесплатно

Скачать торрент фильм Чума / Девяностые (2015) бесплатно без регистрации и без рейтинга

девяностые чума скачать торрент
13.05.2016 01:59:05

Скачать сериал Чума / Девяностые (2015) торрент

Скачать сериал Чума / Девяностые (2015) (24 серии) Размер торрента: 31,46 kb Название файла: Chuma.Devjanostye ...

девяностые чума скачать торрент
14.05.2016 02:59:05

Скачать сериал Чума / Девяностые (2015) HDTV через торрент

Скачать сериал Чума / Девяностые (1-24 серии из 24) (Алексей Козлов, Александр Устюгов) [2015 ...

девяностые чума скачать торрент
15.05.2016 01:59:05

Скачать торрент Чума / Девяностые (2015). Скачивание ...

Скачать Чума / Девяностые (1-3 серии из 24) (Алексей Козлов, Александр Устюгов) [2015, криминал ...

девяностые чума скачать торрент
13.05.2016 01:59:05

Чума / Девяностые (2015) скачать торрент бесплатно без ...

Чума / Девяностые (2015) скачать бесплатно через торрент с открытого торрент трекера 6torrent.net без ...

девяностые чума скачать торрент
12.05.2016 02:59:05

Чума / Девяностые (2015) скачать через торрент бесплатно

Чума / Девяностые (2015) скачать через торрент бесплатно и без регистрации на свой компьютер ...

девяностые чума скачать торрент
17.05.2016 01:59:05

Чума / Девяностые (2015) скачать торрент файл бесплатно

Скачать Чума / Девяностые (2015) через торрент бесплатно, Чума / Девяностые (2015) .torrent полная ...

девяностые чума скачать торрент
11.05.2016 01:59:05

Сериал Чума 2015 скачать торрент

Сериал Чума 2015 скачать торрент Добавлена 24 серия из 24. Коротко о сериале "Чума" - «Чума» - фильм о ...

девяностые чума скачать торрент
15.05.2016 01:59:05

Скачать Чума / Девяностые (1-24 серии из 24) (2015 ...

Русский торрент трекер Русские сериалы Скачать Чума / Девяностые (1-24 серии из 24) (2015) HDTVRip ...

девяностые чума скачать торрент
11.05.2016 02:59:05

Скачать Последний ход королевы (2015) торрент

Русский торрент трекер Русские сериалы Скачать Последний ход королевы (1-4 серии из 4) (2015) SATRip ...

Уроки Premiere Pro Adobe Zoom Out Timeline Farming Simulator 2015 Скачать Торрент С Модами Скачать Amd Радеон 8970 Холодная Сердцем Скачать Торрент В Хорошем Качестве Драйвер Для Сетевого Адаптера Lenovo G580 Скачать Космическая Полиция Сериал Торрент Игры Игровые Автоматы Бесплатно Скачать Скачать Ключ Filecontrol 2.2 Скачать Игру Приключения Через Торрент Неро Торрент Озабоченные Или Любовь Зла Торрент Оригинальный Сталкер Скачать Торент Ведьмак 3 Скачать Торрент 3-Ндфл 2014 Скачать Бланк Vkmusic 4.exe Скачать Бесплатно Зона Скачать Бесплатно Русская Версия Для Windows 7 Скачать С 1-4 Серии Сериала Метод Android 5 Разрешить Отладку Книги Скачать Бесплатно Григорий Лепс Я Поднимаю Руки Скачать Скачать Фильм Через Торрент Бесплатно Шаолинь Mafia 2 Скачать Торрент Gasoline Halsey Скачать Пирамида Скачать В Хорошем Качестве Торрентом Фильм Сисси Молодая Императрица 2009 Скачать Скачать Ноты Олифирова "раз Снежинка Два Снежинка Саранча 2015Торрент